Всегда рабочее зеркало без VPN и Proxy просто перед .vidak.icu напиши любое слово или цифру, Пример http://funq.vidak.icu

MVO

2 сезон

1 сезон

1

1 сезон

iTunes

2 сезон

13

1 сезон

Распродажа

pack

Рекомендуем

Пиратка

30

ВАЖНО

RePack

MK11

RePack

jed

RePack

fifa19

RePack

RDR2

RePack

NEED FOR SPEED™ PAYBACK

Кинопоиск HD

6 сезон

 Острые козырьки 6 сезон

Все сериалы

все сериалы на PB.wtf

RePack

FAR CRY 5

Anonymous, нам критически не хватает 5601 руб. на оплату серверов и переферии за Апрель, помоги нам пожалуйста, вся надежда только на тебя. В благодарность мы отключим тебе всю рекламу на сайте!

×
  
Magnet ссылка

Манюня / Сезон: 1 / Серии: 1-10 из 10 (Арман Марутян) [2021, Приключения, комедия, WEB-DL 1080p] 4rk.vidak.icu

Манюня через торрент 4rk.vidak.icu

Раздают: 1 [ 24 KB/s ]
Размер: 7.44 GB | Добавлен: 11 д. назад | Торрент скачан:14 раз
Смотреть онлайн Манюня | Скачать    Ребята, помогите собрать деньги на оплату серверов!!!

19-12-2021 16:07 Манюня Скачать торрент  

Манюня
Год выпуска: 2021
Страна: Россия
Студия: ООО «К.Б.А. / Кинокомпания братьев Андреасян»
Жанр: Приключения, комедия
Продолжительность: ~ 00:24:00
Субтитры: отсутствуют

Режиссер: Арман Марутян



В ролях: Екатерина Темнова, Карина Каграманян, Джульетта Степанян, Арман Навасардян, Мариам Мано, Карине Мнацаканян, Армен Маргарян, Нонна Гришаева, Чулпан Хаматова, Светлана Иванова, Елизавета Боярская, Елена Подкаминская, Марина Александрова

Описание: Экранизация одноимённой повести Наринэ Абгарян. Армения, 1979 год. Горы, солнце, прекрасные зеленые луга и ощущение праздника. После смешного эпизода в школе девочки Наринэ и Манюня становятся лучшими подругами. Очень быстро в кадре появляются забавные родственники главных героинь. Особенно выделяется Ба, бабушка Манюни. Наринэ очень боялась строгой женщины, но во время их знакомства выяснилось, что Ба печет тающее во рту печенье и вкуснейший яблочный пирог. Девочек-непосед ждет масса забавных приключений.

Качество: WEB-DL 1080p
Формат: MKV

Видео: MPEG-4 AVC, 1920x1080, ~ 5000 Кбит/с, 0.100 bit/pixel, 24 Кадр/с
Аудио: 48 kHz, AC3 Dolby Digital, 3/2 (L, C, R, l, r) + LFE ch, ~384 Kbps

Общее
Уникальный идентификатор : 58190136940567831803578201514203888215 (0x2BC70341A143767EBEEF1B7BE5C33A57)
Полное имя : D:\Manyunya.S01.2021.WEB-DL.1080p\Manyunya.S01.E01.2021.WEB-DL.1080p.mkv
Формат : Matroska
Версия формата : Version 4
Размер файла : 786 Мбайт
Продолжительность : 20 м. 27 с.
Общий поток : 5 374 Кбит/сек
Название фильма : Manyunya.S01.E01.2021.WEB-DL.1080p
Дата кодирования : UTC 2022-05-14 11:46:22
Программа кодирования : mkvmerge v66.0.0 ('Josie') 64-bit
Библиотека кодирования : libebml v1.4.2 + libmatroska v1.6.4
Attachments : poster.jpeg

Видео
Идентификатор : 1
Формат : AVC
Формат/Информация : Advanced Video Codec
Профиль формата : [email protected]
Настройки формата : CABAC / 3 Ref Frames
Параметр CABAC формата : Да
Параметр RefFrames формата : 3 кадра
Идентификатор кодека : V_MPEG4/ISO/AVC
Продолжительность : 20 м. 27 с.
Битрейт : 5 000 Кбит/сек
Ширина : 1 920 пикселей
Высота : 1 080 пикселей
Соотношение сторон : 16:9
Режим частоты кадров : Постоянный
Частота кадров : 24,000 кадра/сек
Цветовое пространство : YUV
Субдискретизация насыщенности : 4:2:0
Битовая глубина : 8 бит
Тип развёртки : Прогрессивная
Бит/(Пиксели*Кадры) : 0.100
Размер потока : 729 Мбайт (93%)
Библиотека кодирования : x264 core 161 r3048 b86ae3c
Настройки программы : cabac=1 / ref=4 / deblock=1:1:1 / analyse=0x3:0x133 / me=umh / subme=9 / psy=1 / psy_rd=0.40:1.00 / mixed_ref=1 / me_range=24 / chroma_me=1 / trellis=0 / 8x8dct=1 / cqm=0 / deadzone=21,11 / fast_pskip=1 / chroma_qp_offset=-2 / threads=34 / lookahead_threads=2 / sliced_threads=0 / nr=0 / decimate=1 / interlaced=0 / bluray_compat=0 / constrained_intra=0 / bframes=8 / b_pyramid=1 / b_adapt=1 / b_bias=0 / direct=3 / weightb=1 / open_gop=0 / weightp=2 / keyint=72 / keyint_min=37 / scenecut=0 / intra_refresh=0 / rc_lookahead=30 / rc=2pass / mbtree=1 / bitrate=5000 / ratetol=1.0 / qcomp=0.80 / qpmin=1 / qpmax=69 / qpstep=4 / cplxblur=20.0 / qblur=0.5 / vbv_maxrate=7500 / vbv_bufsize=10000 / nal_hrd=none / filler=0 / ip_ratio=1.40 / aq=1:1.00
Default : Да
Forced : Нет
Цветовой диапазон : Limited
Основные цвета : BT.709
Характеристики трансфера : BT.709
Коэффициенты матрицы : BT.709

Аудио
Идентификатор : 2
Формат : AC-3
Формат/Информация : Audio Coding 3
Коммерческое название : Dolby Digital
Идентификатор кодека : A_AC3
Продолжительность : 20 м. 27 с.
Вид битрейта : Постоянный
Битрейт : 384 Кбит/сек
Каналы : 6 каналов
Channel layout : L R C LFE Ls Rs
Частота : 48,0 КГц
Частота кадров : 31,250 кадров/сек (1536 SPF)
Метод сжатия : С потерями
Размер потока : 56,2 Мбайт (7%)
Service kind : Complete Main
Default : Да
Forced : Нет

Внимание! Раздача ведётся путём добавления новых серий; при каждом добавлении создаётся новый торрент.
Чтобы начать докачку новой серии, пользователям необходимо сделать следующее:
1. Остановить скачивание;
2. Удалить старый торрент у себя из клиента (старые серии удалять не надо);
3. Скачать новый торрент и запустить его у себя в клиенте вместо старого, при этом указать клиенту путь в старую папку куда и должно происходить скачивание новых серий. Ваш клиент при этом должен произвести хеширование (проверку) старой папки и будет докачивать только те серии, которых у вас ещё нет. Старые серии при этом не удаляются, а продолжают раздаваться! Eсли вы уже удалили старые серии, то предотвратить повторную закачку старых серий можно, отжав галочку в соответствующих местах при запуске нового торрента.

4rk.vidak.icu



Скачать Манюня через торрент https://i117.fastpic.org/big/2022/0514/3a/89218f6112a84005938f42acdba8053a.jpg Скачать, смотреть онлайн Манюня бесплантно в хорошем качестве Описание: Экранизация одноимённой повести Наринэ Абгарян. Армения, 1979 год. Горы, солнце, прекрасные зеленые луга и ощущение праздника. ... 8.8 10 16
Торрент: Зарегистрирован [2022-05-14 12:49] · скачан: 14 раз
Статус: √ проверено
Размер: 7.44 GB
Как cкачать? Как скачать Манюня через торрент | UTorrent

% Раздел Тема Автор DL S | L
Наши сериалы [ 2.45 GB ] Манюня / Сезон: 1 / Серии: 1-10 из 10 [2021 WEB-DLRip-AVC] bober100 Скачать
4 | 0
Наши сериалы [ 2.47 GB ] Манюня / Сезон: 1 / Серии: 1-10 из 10 [2021 WEB-DLRip] bober100 Скачать
2 | 0


Последний раз редактировалось: bober100 (2022-05-14 12:49), всего редактировалось 5 раз(а)

28-11-2019 20:33  

Отключить всю рекламу на сайте

19-12-2021 17:15 Манюня Скачать торрент  

Скоро армяни свой бренд автомобиля в России будут собирать.
Их уже в России больше чем в Армении4rk.vidak.icu



20-12-2021 10:00 Манюня Скачать торрент  

BerserkerRR писал(а):

Скоро армяни свой бренд автомобиля в России будут собирать.
Их уже в России больше чем в Армении

Если сериал добрый , почему нет ... а то всё жуть какую-то снимают, типа камеди клаба. ))4rk.vidak.icu



12-01-2022 06:21 Манюня Скачать торрент  

эх я думал Масяня4rk.vidak.icu



    Дорогой пользователь! Огромная просьба, поблагодарите релизера, оцените раздачу и оставьте свои комментарий, если Вы скачали Манюня через торрент бесплатно!
    Комментировать посты могут только пользователи прошедшие не сложную регистрацию
    Показать сообщения:    

    Манюня через торрент
    Скачать бесплатно Манюня
    Манюня скачать торрент
    Манюня смотреть онлайн
    Cкачать фильм Манюня бесплатно
    Манюня скачать торрент в хорошем качестве
    Манюня смотреть онлайн бесплатно в хорошем качестве


    Вы не можете начинать темы
    Вы не можете отвечать на сообщения
    Вы не можете редактировать свои сообщения
    Вы не можете удалять свои сообщения
    Вы не можете голосовать в опросах
    Вы не можете прикреплять файлы к сообщениям
    Вы можете скачивать файлы