Всегда рабочее зеркало без VPN и Proxy просто перед .vidak.icu напиши любое слово или цифру, Пример http://ihe2.vidak.icu

MVO

2 сезон

1 сезон

1

1 сезон

iTunes

2 сезон

13

1 сезон

Распродажа

pack

Рекомендуем

Пиратка

30

ВАЖНО

RePack

MK11

RePack

jed

RePack

fifa19

RePack

RDR2

RePack

NEED FOR SPEED™ PAYBACK

Кинопоиск HD

6 сезон

 Острые козырьки 6 сезон

Все сериалы

все сериалы на PB.wtf

RePack

FAR CRY 5

Anonymous, нам критически не хватает 5601 руб. на оплату серверов и переферии за Апрель, помоги нам пожалуйста, вся надежда только на тебя. В благодарность мы отключим тебе всю рекламу на сайте!

×
  
Magnet ссылка

Триггер / Провокатор / Сезоны: 2 / Серии: 1-16 из 16 (Игорь Твердохлебов) [2021, Драма, WEB-DLRip-AVC] 4rk.vidak.icu

Триггер через торрент 4rk.vidak.icu

Раздают: 12 [ 1 MB/s ] Качают: 4 [ 0 KB/s ]
Размер: 11.03 GB | Добавлен: 11 д. назад | Торрент скачан:58 раз
Смотреть онлайн Триггер | Скачать    Ребята, помогите собрать деньги на оплату серверов!!!

22-01-2022 10:35 Триггер Скачать торрент  

Триггер | Провокатор
Год выпуска: 2021
Страна: Россия
Студия: ООО ПК «Среда»
Жанр: Драма
Продолжительность: ~ 00:52:00 серия
Субтитры: Русские (полные)

Режиссер: Игорь Твердохлебов

rating

В ролях: Максим Матвеев, Игорь Костолевский, Светлана Иванова, Виктория Маслова, Марк Юсеф, Роман Маякин, Владислав Тирон, Ангелина Стречина, Марианна Шульц, Даниил Воробьёв, Андрей Мерзликин, Макар Запорожский, Сабина Ахмедова, Екатерина Варнава, Светлана Устинова, Дарья Коныжева, Мадлен Джабраилова, Лена Тронина, Сергей Гилёв, Олег Осипов (II), Андрей Назимов, Николай Шрайбер, Яна Сексте, Антон Хабаров, Алексей Розин, Елена Хабарова, Зоя Бербер, Олег Евтеев, Всеволод Болдин, Гарик Айвазов, Хельга Филиппова, Павел Ворожцов, Артём Быстров, Алёна Малахова, Александр Сергеев (II), Дмитрий Овчинников, Эльвира Синельник, Александра Бабаскина, Юлия Бедарева, Каринэ Асланян, Мария Ремер, Алла Малкова, Арина Горбачёва, Александра Бурьянова, Юлия Беляева, Ника Вигель, Маргарита Дьяченкова, Ярослав Доронин, Сергей Лобынцев, Артём Осипов, Евгений Добряков, Екатерина Шевченко, Андрей Дудников, Лиана Гриба, Александр Лавров (II), Фёдор Федосеев, Иван Егоров (II), Сергей Арбатский, Кристина Вайнас, Ксения Дубник, Александр Мякушко, Яна Сивакова, Максим Демченко (II), Максим Дромашко, Рафаэль Ханбеков, Сергей Новосад, Эльвира Цымбал

Описание: Узнав о гибели близкого человека, Артем Стрелецкий решает выйти из клиники, где провел больше года, восстанавливаясь после сокрушительных событий первого сезона. Он хочет докопаться до истины и понять, что произошло на самом деле. И параллельно возвращается к практике — Артем готов помогать всем и каждому: детям домашних тиранов, жертвам насилия, тем, кто потерял родных или чувствует себя ненужным, тем, кто боится иметь детей, и тем, кто своих детей не принимает. Стрелецкий водит людей по их прошлому, показывает откуда растут проблемы и берётся за самые сложные случаи. С легкостью помогая другим, он все сильнее запутывается в собственных чувствах и отношениях с друзьями и врагами. Но теперь в его жизни есть та, рядом с кем он может быть просто собой.

Качество: WEB-DLRip-AVC
Формат: MKV

Видео: MPEG-4 AVC, ~ 1600 Кбит/с, 1024x576, 25 кадр/с
Аудио: AC3 Dolby Digital, 48.0 kHz, 2/0 (L,R) ch, 192 kbps
скриншот  скриншот  скриншот  скриншот  скриншот  скриншот  

General
General
Unique ID : 205420599361517985730781958933084630172 (0x9A8A917F69F6887AA4A9CB3FA93BEC9C)
Complete name : H:\fiiles x\Триггер.s02.2021.WEB-DLRip.Files-x\01. Триггер.s02.2021.WEB-DLRip.Files-x.mkv
Format : Matroska
File size : 689 MiB
Duration : 53mn 44s
Overall bit rate : 1 793 Kbps
Encoded date : UTC 2022-01-07 10:33:35
Writing application : mkvmerge v7.8.0 ('River Man') 32bit built on Apr 3 2015 12:11:22
Writing library : libebml v1.3.1 + libmatroska v1.4.2

Video
ID : 1
Format : AVC
Format/Info : Advanced Video Codec
Format profile : [email protected]
Format settings, CABAC : Yes
Format settings, ReFrames : 9 frames
Codec ID : V_MPEG4/ISO/AVC
Duration : 53mn 44s
Bit rate : 1 600 Kbps
Width : 720 pixels
Height : 400 pixels
Display aspect ratio : 16:9
Frame rate : 25.000 fps
Color space : YUV
Chroma subsampling : 4:2:0
Bit depth : 8 bits
Scan type : Progressive
Bits/(Pixel*Frame) : 0.222
Stream size : 602 MiB (87%)
Writing library : x264 core 146 r2538 121396c
Encoding settings : cabac=1 / ref=9 / deblock=1:-2:-1 / analyse=0x3:0x133 / me=umh / subme=9 / psy=1 / psy_rd=1.00:0.15 / mixed_ref=1 / me_range=32 / chroma_me=1 / trellis=2 / 8x8dct=1 / cqm=0 / deadzone=21,11 / fast_pskip=0 / chroma_qp_offset=-3 / threads=18 / lookahead_threads=3 / sliced_threads=0 / nr=0 / decimate=1 / interlaced=0 / bluray_compat=0 / constrained_intra=0 / bframes=9 / b_pyramid=2 / b_adapt=2 / b_bias=0 / direct=1 / weightb=1 / open_gop=0 / weightp=2 / keyint=250 / keyint_min=25 / scenecut=40 / intra_refresh=0 / rc=2pass / mbtree=0 / bitrate=1600 / ratetol=1.0 / qcomp=0.60 / qpmin=0 / qpmax=69 / qpstep=4 / cplxblur=20.0 / qblur=0.5 / ip_ratio=1.40 / pb_ratio=1.30 / aq=2:1.00
Color primaries : BT.709-5, BT.1361, IEC 61966-2-4, SMPTE RP177
Transfer characteristics : BT.709-5, BT.1361
Matrix coefficients : BT.709-5, BT.1361, IEC 61966-2-4 709, SMPTE RP177

Audio
ID : 2
Format : AC-3
Format/Info : Audio Coding 3
Mode extension : CM (complete main)
Codec ID : A_AC3
Duration : 53mn 44s
Bit rate mode : Constant
Bit rate : 192 Kbps
Channel(s) : 2 channels
Channel positions : Front: L R
Sampling rate : 48.0 KHz
Bit depth : 16 bits
Compression mode : Lossy
Stream size : 73.8 MiB (11%)

Внимание! Раздача ведётся путём добавления новых серий; при каждом добавлении создаётся новый торрент. Чтобы начать докачку новой серии, пользователям необходимо сделать следующее:
(1) остановить скачивание,
(2) удалить старый торрент у себя из клиента (старые серии удалять не надо),
(3) скачать новый торрент и запустить его у себя в клиенте вместо старого, при этом указать клиенту путь в старую папку куда и должно происходить скачивание новых серий.

Ваш клиент при этом должен произвести хеширование (проверку) старой папки (если не производит сам - помогите ему сделать это), и будет докачивать только те серии которых у вас ещё нет. Старые серии при этом не удаляются, а продолжают раздаваться!

Eсли вы уже удалили старые серии, то предотвратить повторную закачку старых серий можно, отжав галочку в соответсвующих местах при запуске нового торрента. По возможности, желательно не удалять старые серии как можно дольше чтобы релизёр не столько продолжал раздавать старые серии, а смог сконцентрироваться на новых.
4rk.vidak.icu



Скачать Триггер через торрент https://i116.fastpic.org/big/2022/0107/19/7d4249ee62d28751b2ef53751f0c2919.png Скачать, смотреть онлайн Триггер бесплантно в хорошем качестве Описание: Узнав о гибели близкого человека, Артем Стрелецкий решает выйти из клиники, где провел больше года, восстанавливаясь после ... 9.1 10 14
Торрент: Зарегистрирован [2022-05-14 11:58] · скачан: 58 раз
Статус: √ проверено
Размер: 11.03 GB
Как cкачать? Как скачать Триггер через торрент | UTorrent

% Раздел Тема Автор DL S | L
Наши сериалы [ 24.96 GB ] Триггер / Провокатор / Сезоны: 2 / Серии: 1-16 из 16 [2021 WEB-DL 720p] bober100 Скачать
5 | 5
Наши сериалы [ 36.29 GB ] Триггер / Провокатор / Сезоны: 2 / Серии: 1-16 из 16 [2021 WEB-DL 1080p] bober100 Скачать
4 | 6
Наши сериалы [ 11.37 GB ] Триггер / Провокатор / Сезоны: 2 / Серии: 1-16 из 16 [2021 WEB-DLRip] bober100 Скачать
18 | 8

28-11-2019 20:33  

Отключить всю рекламу на сайте

    Дорогой пользователь! Огромная просьба, поблагодарите релизера, оцените раздачу и оставьте свои комментарий, если Вы скачали Триггер через торрент бесплатно!
    Комментировать посты могут только пользователи прошедшие не сложную регистрацию
    Показать сообщения:    

    Триггер через торрент
    Скачать бесплатно Триггер
    Триггер скачать торрент
    Триггер смотреть онлайн
    Cкачать фильм Триггер бесплатно
    Триггер скачать торрент в хорошем качестве
    Триггер смотреть онлайн бесплатно в хорошем качестве


    Вы не можете начинать темы
    Вы не можете отвечать на сообщения
    Вы не можете редактировать свои сообщения
    Вы не можете удалять свои сообщения
    Вы не можете голосовать в опросах
    Вы не можете прикреплять файлы к сообщениям
    Вы можете скачивать файлы